#TITLE:Orc Theme 01;
#SUBTITLE:Warcraft II;
#ARTIST:Blizzard (Glenn Stafford);
#TITLETRANSLIT:;
#SUBTITLETRANSLIT:;
#ARTISTTRANSLIT:;
#CREDIT:;
#BANNER:Orc Theme.png;
#BACKGROUND:Orc Theme-bg.png;
#LYRICSPATH:;
#CDTITLE:cdtitle.png;
#MUSIC:Orc Theme.mp3;
#OFFSET:1.620;
#SAMPLESTART:53.488;
#SAMPLELENGTH:20.000;
#SELECTABLE:YES;
#BPMS:0.000=134.960;
#STOPS:;
#BGCHANGES:;
// cache tags:
#FIRSTBEAT:4.000;
#LASTBEAT:236.000;
#SONGFILENAME:Songs/Music V.I.P ^_^/Orc theme (Bursurk Lurk)/Orc Theme.sm;
#HASMUSIC:1;
#HASBANNER:1;
#MUSICLENGTH:121.312;
// end cache tags

//---------------dance-single - ----------------
#NOTES:
     dance-single:
     :
     Hard:
     13:
     1.000,1.000,1.000,0.066,1.000,828.000,229.000,8.000,0.000,1.000:
0000
0000
0000
0000
,
1010
0000
0100
0100
1010
0000
1010
0000
0010
0010
0101
0000
0110
0010
1000
0000
,
1100
0100
0100
0000
1010
0000
0100
0100
1010
0000
1010
0000
0010
0010
0101
0000
,
0110
0100
0010
0010
1100
0100
0100
0000
1010
0000
0100
0100
1010
0000
1010
0000
,
0010
0010
0101
0000
0110
0010
1000
0000
1100
0100
0100
0000
1010
0000
0100
0100
,
1010
0000
1010
0000
0010
0010
0101
0000
0110
0010
0001
0001
1100
0100
0101
0110
,
1100
0000
1001
0110
1010
0000
0110
0010
1100
0101
1010
0010
1100
0100
0110
0010
,
1100
1000
1010
0110
0101
0000
0101
0110
1001
0000
0101
0100
1001
0011
0101
0100
,
1010
0010
0110
0100
1001
1000
1100
0110
0011
0000
1100
1010
0101
0000
1010
1000
,
0011
0110
1100
1000
0101
0001
1001
1000
0110
0100
1100
1010
0110
0000
0011
0101
,
1010
0000
0101
0001
1010
0110
1001
0001
1100
1100
1001
1001
0110
0110
0110
0110
,
2100
0000
0100
0100
0100
0000
0100
0000
3200
0000
0010
0010
0010
0000
0010
0000
,
0320
0000
0001
0001
0001
0000
0001
0000
0032
0000
0010
0010
0010
0000
0010
0000
,
2003
0000
0100
0100
0100
0000
0100
0000
3020
0000
0001
0001
0001
0000
0001
0000
,
0230
0000
0010
0010
0010
0000
0010
0000
0302
0000
0100
0100
0100
0000
0100
0000
,
1103
0010
0100
0001
1100
0010
0100
0001
1100
0010
0100
0001
1100
0010
0100
0001
,
1100
0010
0100
0001
1100
0010
0100
0001
1100
0010
0001
0100
1100
0001
0010
0100
,
1010
0100
0010
0001
1010
0100
0010
0001
1010
0100
0010
0001
1010
0100
0010
0001
,
1010
0100
0010
0001
1010
0100
0010
0001
1010
0100
0010
0001
1010
0100
1010
0110
,
0101
0010
0100
1000
0101
0010
0100
1000
0101
0010
0100
1000
0101
0010
0100
1000
,
0101
0010
0100
1000
0101
0010
0100
1000
0101
0010
0100
1000
0101
0010
0101
1001
,
1100
0010
1000
0001
1100
0010
1000
0001
1010
0001
1000
0100
1010
0001
0101
1100
,
0110
0001
0100
1000
0110
0001
0101
0010
1100
0001
0100
0010
1100
0001
0010
0100
,
1001
0000
0010
0100
1001
0000
0100
0010
1001
0000
0001
0010
1001
0000
0110
1010
,
0101
0000
1100
0010
0101
0000
0010
1000
0101
0000
1000
0010
0101
0000
0010
0001
,
1100
0000
0001
0010
1100
0000
1000
0010
1100
0000
0001
0010
1100
0000
0101
1010
,
0110
0000
1010
0001
0110
0000
0100
0001
0110
0000
0100
1000
0011
0000
0110
0101
,
1010
0000
0011
0100
1010
0000
0010
1000
0101
0000
1100
0110
0101
0000
0011
1000
,
0101
0000
0010
0001
0110
0000
0101
1010
0110
0000
1010
0001
0110
0000
0001
1000
,
0110
0000
0100
0001
0110
0000
0011
0110
1100
0000
0101
0010
1100
0000
0010
0001
,
1100
0000
1100
0110
0101
0000
1100
0010
0101
0000
0010
1000
0101
0000
0010
0000
,
1001
0000
0010
0100
1001
0000
0100
0010
1001
0000
0001
0100
1001
0000
0110
0101
,
1010
0000
0110
0001
1010
0000
0100
0001
1010
0000
0001
0100
1010
0000
0100
0010
,
1100
0000
0100
0001
1100
0000
0001
0010
1100
0000
1000
0010
1100
0000
1010
0101
,
0110
0000
0101
1000
0110
0000
0001
1000
0110
0000
1000
0001
0110
0000
0101
1010
,
0011
0000
1010
0100
0011
0000
0100
1000
0011
0000
1010
0101
0110
0000
1100
0001
,
0110
0000
0001
1000
0110
0000
0101
0110
1010
0000
0110
0001
1010
0000
0001
0100
,
1010
0000
0100
0001
1010
0000
1100
0101
1001
0000
0101
0010
1001
0000
0001
0010
,
1001
0000
0000
0000
0000
0000
1001
0000
0000
1001
0000
0000
1001
0000
0000
0000
0000
0000
1001
0000
0000
1001
0000
0000
1001
0000
0010
0000
1000
0000
0010
0000
1000
0000
0010
0000
1000
0000
0010
0000
1000
0000
0010
0000
1000
0000
0010
0000
,
1100
0000
0000
0000
1000
0100
1000
0100
0010
0100
0010
0100
0010
0001
0010
0001
,
0100
0010
0100
0010
1000
0001
1000
0001
1000
0010
1000
0010
0100
0001
0100
0001
,
0001
0010
0100
1000
0001
0010
0100
1000
0001
0010
0100
1000
0001
0010
0100
1000
,
0001
0010
0100
1000
0001
0010
0100
1000
0001
0010
0100
1000
0001
0010
0100
1000
,
0010
0100
0010
0100
0010
0100
0010
0100
0010
1000
0000
0000
0000
0000
0000
0001
0000
0000
1000
0001
1000
0001
1000
0001
,
1000
0001
1000
0010
0000
0000
0000
0000
0000
0100
0000
0000
0001
0010
0001
0010
0001
0010
0100
0000
0000
0000
0000
0000
,
1000
0001
1000
0001
1000
0001
1000
0001
1000
0100
0000
0000
0000
0000
0000
0010
0000
0000
0001
0100
0001
0100
0001
0100
,
0001
0100
0001
1000
0000
0000
0000
0000
0000
0010
0000
0000
1000
0100
1000
0100
1000
0100
0010
0000
0000
0000
0000
0000
,
0001
0100
0001
0100
0001
0100
0001
0100
0001
0010
0000
0000
0000
0000
0000
0100
0000
0000
0010
0100
0010
0100
0010
0100
,
0010
0100
0010
0001
0000
0000
0000
0000
0000
1000
0000
0000
0001
0010
0001
0010
0001
0010
0100
0000
0000
0000
0000
0000
,
1000
0001
1000
0001
1000
0001
1000
0001
1000
0010
0000
0000
0000
0000
0000
0100
0000
0000
0001
1000
0001
1000
0001
1000
,
0001
1000
0001
0010
0000
0000
0000
0000
0000
0100
0000
0000
1000
0100
1000
0100
1000
0100
0010
0000
0000
0000
0000
0000
,
0001
1000
0001
1000
0001
1000
0001
1000
0001
0100
0000
0000
0000
0000
0000
0010
0000
0000
0100
0001
0100
0001
0100
0001
,
0100
0001
0100
0010
0000
0000
0000
0000
0000
0100
0000
0000
0001
0010
0001
0010
0001
0010
0100
0000
0000
0000
0000
0000
,
1000
0001
1000
0001
1000
0001
1000
0001
1000
0100
0000
0000
0000
0000
0000
0010
0000
0000
0100
0010
0100
0010
0100
0010
,
0100
0010
0100
1000
0000
0000
0000
0000
0000
0100
0000
0000
0001
0010
0001
0010
0001
0010
0100
0000
0000
0000
0000
0000
,
0100
0001
0100
0001
0100
0001
0100
0001
0100
0010
0100
0010
0100
0010
0100
0001
0100
0010
1000
0010
0100
0001
0100
0010
,
1000
0010
0100
0001
0100
0010
0100
0010
0100
0001
0100
0010
1000
0010
0100
0001
0100
0010
1000
0010
0100
0010
0100
0010
,
1000
0010
0100
0010
0100
0010
0100
0010
0100
0010
0100
0010
1000
0010
0100
0010
0100
0010
0001
0010
0100
0010
0100
0010
,
1000
0010
0100
0010
0100
0010
0100
0010
0100
0010
0100
0010
1000
0001
1000
0001
1000
0001
1000
0001
1000
0001
1000
0001
,
0110
0000
0000
0000
;
